즐겨찾기 | 현재접속자 (111) | 최근게시물

총 게시물 594건, 최근 0 건
   

[무] 밤 경비원 The.Night.Watchmen.2017.BluRay.1080p.x264.AAC.5.1.-.Hon3y

글쓴이 : 익명글쓴이 날짜 : 2017-10-08 (일) 08:48 조회 : 1171
다운로드 : [무] 밤 경비원 The.Night.Watchmen.2017.BluRay.1080p.x264.AAC.5.1.-.Hon3y (5.4G)
171006 171007 171008 실시간, 무료, 다운, magnet


Not Rated | Comedy, Horror | 2017 (USA)


Format                      : Matroska
Format version              : Version 4 / Version 2
File size                   : 2.25 GiB
Duration                    : 1 h 37 min
Overall bit rate            : 3318 kb/s

Video
ID                          : 1
Format                      : AVC
Format/Info                 : Advanced Video Codec
Format profile              : [email protected]
Format settings, CABAC      : Yes
Format settings, RefFrames  : 5 frames
Codec ID                    : V_MPEG4/ISO/AVC
Duration                    : 1 h 37 min
Bit rate                    : 3000 kb/s
Width                       : 1920 pixels
Height                      : 802 pixels
Display aspect ratio        : 2.40:1
Frame rate mode             : Constant
Frame rate                  : 25.000 FPS

Audio
ID                          : 2
Format                      : AAC
Format/Info                 : Advanced Audio Codec
Format profile              : LC
Codec ID                    : A_AAC
Duration                    : 1 h 37 min
Bit rate                    : 319 kb/s
Channel(s)                  : 6 channels
Channel positions           : Front: L C R, Side: L R, LFE
Sampling rate               : 48.0 kHz
Frame rate                  : 46.875 FPS (1024 SPF)
Compression mode            : Lossy
Delay relative to video     : -21 ms
Stream size                 : 221 MiB (10%)
Title                       : Surround
Language                    : English

Text
ID                          : 3
Format                      : ASS
Codec ID                    : S_TEXT/ASS
Codec ID/Info               : Advanced Sub Station Alpha
Duration                    : 1 h 28 min
Bit rate                    : 63 b/s
Count of elements           : 843
Compression mode            : Lossless
Stream size                 : 40.8 KiB (0%)
Language                    : French
Default                     : No
Forced                      : No

Menu
00:00:00.000                : :00:00:00.000
00:08:05.360                : :00:08:05.360
00:16:21.200                : :00:16:21.200
00:23:58.960                : :00:23:58.960
00:29:44.680                : :00:29:44.680
00:41:38.400                : :00:41:38.400
00:48:32.520                : :00:48:32.520
00:55:55.320                : :00:55:55.320
01:04:13.560                : :01:04:13.560
01:12:30.840                : :01:12:30.840
01:20:45.760                : :01:20:45.760
01:28:31.000                : :01:28:31.000


[무] 밤 경비원 The.Night.Watchmen.2017.BluRay.1080p.x264.AAC.5.1.-.Hon3y
[ 바로감상 ] [ 다운로드 ]

   

총 게시물 594건, 최근 0 건
번호 제목 날짜 조회
594
비밀리에 제작된 위조 지폐 동판을 탈취하려는 내부 조직에 의해 작전 중 아내와 동료들을 잃게 된 특수 …
12-11 131
593
두려움이 너와 함께 하리라평화롭던 부부의 집에 초대받지 않은 손님들이 찾아온다. 낯선 이들의 방문이…
12-08 418
592
영화 터미네이터에서 인류 종말의 원인이 되었던 인공지능 스카이넷과 같은 컨셉으로 만들어진 영화. …
12-08 317
591
긴급 뉴스!“올해 시험을 주관하는 STIC 협회가 부정행위를 발각해 큰 논란이 있었습니다. 몇몇 아시아 …
12-08 291
590
R | Action, Biography, Comedy Size ...... 31.56 GBDuration .. 1 h 54 minVideo ..... 1920x1080p / x264 / 27.5 Mbps / 23.976 fpsAudio ..... E…
12-05 836
589
정의도 법도 그 누구의 편도 아닌그의 미친 비행이 시작된다뉴욕에서 워싱턴, 워싱턴에서 시카고로.  …
12-05 679
588
킹스맨 본부의 파괴!더 강력해진 범죄조직 골든서클의 등장!철저하게 비밀에 둘러싸인 채 세상을 안전하…
12-05 766
587
인적이 느껴지지 않는 캘리포니아 모하비 사막. 하늘에는 이상하게 붉은 광선이 떠있다.  평범한 가정…
12-02 789
586
토XX아, 보XX고, K동 동시 직공 게시합니다사이트마다 게시글은 조금씩 다를 수 있습니다 (보XX고엔 직샷…
12-01 823
585
Drama, Family 4.36 GB / 9.74 GBJapanese
12-01 543
584
토XX아, 보XX고, K동 동시 직공 게시합니다사이트마다 게시글은 조금씩 다를 수 있습니다 (보XX고엔 직샷…
12-01 531
583
토XX아, 보XX고, K동 동시 직공 게시합니다사이트마다 게시글은 조금씩 다를 수 있습니다 (보XX고엔 직샷…
12-01 691
582
3.26 GB l 5.46 GBComedy, Drama
12-01 466
581
Format                      : MatroskaFormat version              : Version 4 / Version 2File size   …
12-01 402
580
Crime, Drama, History 1.74 GB / 2.74 GB
12-01 404
579
Comedy, Drama 870.59 MB / 1.35 GB
12-01 406
578
12-01 422
577
모든 것이 꼬여만 가는 하루하루들..남편과 헤어진 앨리스는 두 딸과 함께 LA로 이사를 오게 되고 그 곳에…
12-01 441
576
NR | Drama Size ...... 4.37 GBDuration .. 1 h 36 minVideo ..... 1280x536p / x264 / 4978 Kbps / 24.000 fpsAudio ..... German / DTS / 1509 kb…
11-30 495
575
<컨퍼메이션>의 조 리스터 존스의 감독 데뷔작으로써 싸움을 멈출 수 없는 부부가 그들의 결혼을 구…
11-30 534
 1  2  3  4  5  6  7  8  9  10  다음  맨끝