즐겨찾기 | 현재접속자 (133) | 최근게시물
총 게시물 1,552건, 최근 25 건
   

[한글] 쉰들러 리스트 Schindlers List 1993 1080p Bluray x265 10Bit AAC 5.1 - GetSchwifty

글쓴이 : 익명글쓴이 날짜 : 2017-09-13 (수) 19:48 조회 : 136
다운로드 : [한글] 쉰들러 리스트 Schindlers List 1993 1080p Bluray x265 10Bit AAC 5.1 - GetSchwifty (5.6G)
170911 170912 170913 공유, 마그넷, 실시간, 사이트

Source File:

Schindlers List 1993 1080p FRA BluRay AVC DTS-HD MA 5.1 - NOGROUP 



Media Information:


Code:

General 
Complete name : Schindlers List 1993 1080p Bluray x265 10Bit AAC 5.1 - GetSchwifty.mkv 
Format : Matroska 
Format version : Version 4 / Version 2 
File size : 6.91 GiB 
Duration : 3 h 15 min 
Overall bit rate : 5 071 kb/s 
Movie name : Schindlers List 
Encoded date : UTC 2017-09-12 02:44:04 

Video 
ID : 1 
Format : HEVC 
Format/Info : High Efficiency Video Coding 
Format profile : Main [email protected]@Main 
Codec ID : V_MPEGH/ISO/HEVC 
Duration : 3 h 15 min 
Bit rate : 4 631 kb/s 
Width : 1 920 pixels 
Height : 1 040 pixels 
Display aspect ratio : 1.85:1 
Frame rate mode : Constant 
Frame rate : 23.976 (24000/1001) FPS 
Color space : YUV 
Chroma subsampling : 4:2:0 
Bit depth : 10 bits 
Bits/(Pixel*Frame) : 0.097 
Stream size : 6.31 GiB (91%) 

Audio 
ID : 2 
Format : AAC 
Format/Info : Advanced Audio Codec 
Format profile : LC 
Codec ID : A_AAC 
Duration : 3 h 15 min 
Bit rate : 369 kb/s 
Channel(s) : 6 channels 
Channel positions : Front: L C R, Side: L R, LFE 
Sampling rate : 48.0 kHz 
Frame rate : 46.875 FPS (1024 SPF) 
Compression mode : Lossy 
Delay relative to video : 9 ms 
Stream size : 515 MiB (7%) 
Title : English AAC VBR 5.1 
Language : English 
Default : Yes 
Forced : No 

“왜 나는 더 많은 유태인들을 구해내지 못하였는가?”

1939년 9월 독일군의 폴란드 점령과 함께 오스카 쉰들러는 폴란드의 크레코우로 이주해온다. 기회주의자에 호색한인 쉰들러는 전쟁중 나치와 결탁해 임금을 줄 필요가 없는 유대인을 공장의 인력으로 이용한다. 이때 만난 유대인 회계사 아이작 스턴은 쉰들러의 내면에 숨어 있던 양심을 일깨워준다. 유대인들에 대한 박해가 심해지자 쉰들러는 그들을 강제수용소에서 구해내기로 결심한다. 수용소 장교에게 뇌물을 주고 유대인들을 자신의 고향으로 옮길 계획을 세운 쉰들러는 스턴과 함께 구출할 유대인 명단을 작성한다. 
[한글] 쉰들러 리스트 Schindlers List 1993 1080p Bluray x265 10Bit AAC 5.1 - GetSchwifty
[ 바로감상 ] [ 다운로드 ]

   

총 게시물 1,552건, 최근 25 건
번호 제목 날짜 조회
1552
15:48 2
1551
15:48 3
1550
15:48 4
1549
15:48 2
1548
15:48 2
1547
히트맨 Hitman (2007) [1080p] / [720p].BrRiP.x264.YIFY.mp4토렌트 파일: Hitman (2007) [1080p] [YTS.AG]폴더 이름: Hitmai…
15:48 2
1546
생일마다 사기치는 Girl~!평범한 소시민 존 버킹검(벤 채플린)은 근소한 차이로 과장 승진에서 누락되지만…
03:48 12
1545
03:48 7
1544
시카고 비밀경찰기구 특수요원인 카민스키(Mark Kaminsky, aka Joseph P. Brenner: 아놀드 슈왈츠네거 분)는 고릴라…
03:48 7
1543
 가슴 따뜻해지는 크리스마스의 분위기를 그대로 담은 영화 [어 베리 머리 크리스마스]. [사랑도 통역이 …
03:48 10
1542
레트로액티브 (1997) Retroactive평점 8.5/10 장르|나라액션/범죄/SF 미국 개봉 | 영화시간/타입/나라90분, 15세이…
03:48 7
1541
03:48 6
1540
03:48 6
1539
09-22 20
1538
09-22 19
1537
09-22 19
1536
남루한 삶, 시시한 음악, 모두 버리고 두 번째 삶을 시작할거야어느 날 유튜브에서 접한 모차르트의 레퀴…
09-22 16
1535
09-22 18
1534
09-22 27
1533
09-22 25
 1  2  3  4  5  6  7  8  9  10  다음  맨끝