즐겨찾기 | 현재접속자 (153) | 최근게시물
총 게시물 2,580건, 최근 10 건
   

[한글] 테이크 쉘터 Take Shelter 2011 (1080p Bluray x265 HEVC 10bit AAC 5.1 Tigole)

글쓴이 : 익명글쓴이 날짜 : 2017-06-15 (목) 20:48 조회 : 1909
다운로드 : [한글] 테이크 쉘터 Take Shelter 2011 (1080p Bluray x265 HEVC 10bit AAC 5.1 Tigole) (3.6G)
170613 170614 170615 홈페이지, 무료, magnet, 실시간

Take Shelter 2011 in 1080p, encoded with x265 in HEVC and AAC 5.1 English, with English and French subtitles! 
Encoded using the time consuming 2 pass, 10 bit color at 2750 kbps, from a Blu-ray source, for the highest quality possible. 



Media Information

Code:

General 
Format : Matroska 
Format version : Version 4 / Version 2 
File size : 2.66 GiB 
Duration : 2 h 1 min 
Overall bit rate : 3 141 kb/s 
Movie name : Take Shelter 
Encoded date : UTC 2017-05-09 10:26:31 
Writing application : mkvmerge v9.6.0 (Slave To Your Mind) 64bit 
Writing library : libebml v1.3.4 + libmatroska v1.4.5 

Video 
ID : 1 
Format : HEVC 
Format/Info : High Efficiency Video Coding 
Format profile : [email protected]<script data-cfhash='f9e31' type="text/javascript">@Main 
Codec ID : V_MPEGH/ISO/HEVC 
Duration : 2 h 1 min 
Bit rate : 2 761 kb/s 
Width : 1 920 pixels 
Height : 816 pixels 
Display aspect ratio : 2.35:1 
Frame rate mode : Constant 
Frame rate : 23.976 (24000/1001) FPS 

Audio #1 
ID : 2 
Format : AAC 
Format/Info : Advanced Audio Codec 
Format profile : LC 
Codec ID : A_AAC 
Duration : 2 h 1 min 
Bit rate : 305 kb/s 
Channel(s) : 6 channels 
Channel positions : Front: L C R, Side: L R, LFE 
Sampling rate : 48.0 kHz 
Frame rate : 46.875 FPS (1024 spf) 
Compression mode : Lossy 
Delay relative to video : 20 ms 
Stream size : 264 MiB (10%) 
Language : English 
Default : Yes 
Forced : No 

Audio #2 
ID : 3 
Format : AAC 
Format/Info : Advanced Audio Codec 
Format profile : HE-AAC / LC 
Codec ID : A_AAC 
Duration : 2 h 1 min 
Bit rate : 66.2 kb/s 
Channel(s) : 2 channels 
Channel positions : Front: L R 
Sampling rate : 48.0 kHz / 24.0 kHz 
Frame rate : 23.438 FPS (1024 spf) 
Compression mode : Lossy 
Delay relative to video : 40 ms 
Stream size : 57.0 MiB (2%) 
Title : Commentary 
Language : English 
Default : No 
Forced : No 

악몽인가 현실인가, 폭풍에 맞서는 한 남자의 외로운 싸움이 시작된다!

한 여자의 남편이자 한 아이의 아빠로서 성실한 삶을 살고 있는 커티스. 하지만 어느 날부터인가 시작된 악몽은 평온했던 그의 일상을 뒤흔든다. 거대한 폭풍이 밀려오는 악몽은 현실 깊숙이 침투해 커티스를 괴롭히고, 그의 이상행동을 이해하지 못하는 아내 사만다와 동료들은 그를 외면하기에 이른다. 그럼에도 커티스는 폭풍으로부터 가족을 지켜내야 한다는 사명감으로 뒷마당에 방공호를 짓기 시작하는데…

[한글] 테이크 쉘터 Take Shelter 2011 (1080p Bluray x265 HEVC 10bit AAC 5.1 Tigole)
[ 바로감상 ] [ 다운로드 ]

   

총 게시물 2,580건, 최근 10 건
번호 제목 날짜 조회
2580
줄거리  법도 없다! 희망도 없다! 탈출구도 없다! 평범한 중산층의 가장 포터는 어느날 집에 침입…
18:48 20
2579
줄거리  역사속에 묻혀졌던 파격적인 스캔들이 공개된다!프로이트와 융... 그리고 그녀가 품었던 …
18:48 30
2578
18:48 30
2577
          링의 공포로부터 벗어난 줄만 알았던 레이첼. 하지만 끔찍한 영혼의 저주는 계속되는 죽…
18:48 31
2576
           1974년 11월 14일, 뉴욕시 외곽에 위치한 아미티빌 마을. 온 가족이 처참하게 몰살당한 살…
18:48 30
2575
년대가 불분명한 5월의 어느날 화성인이 지구에 출현한다. 세계 평화와 자유진영의 지도자를 자처하는 …
18:48 3
2574
 타인의 인생 속으로... 거짓은 거짓을 낳고... 점점 깊어가는 거짓의 세계 한 남자가 있다. 그의 이름은 …
18:48 4
2573
NR | Comedy(Duration): 1h 37mn(FileSize): 1.88 GiBVideo(Format): AVC - Advanced Video Codec(Format): x264(Resolution): 1280x720p(AspectRati…
06:48 40
2572
Approved | Western(Duration): 1h 41mn(FileSize): 1.95 GiBVideo(Format): AVC - Advanced Video Codec(Format): x264(Resolution): 1280x720p(Asp…
06:48 37
2571
임페리얼 커피 컴퍼니의 판매사원인 믹 트래비스는 사원교육에서 진심 어린 미소로 좋은 평가를 받는다.…
01:48 59
2570
11-19 80
2569
마피아에게 쫓기는 증인을 지켜야 하는마데아의 엉뚱발랄 가족코미디!월스트리트 투자 은행의 CFO 인 조…
11-19 77
2568
PG | Drama, Mystery, Sci-Fi Size ...... 10.94 GBDuration .. 2 h 29 minVideo ..... 1920x800p / x264 / 9818 kbps / 23.976 fpsAudio ..... Engl…
11-19 76
2567
Approved | Action, Adventure, Crime SIZE ...... 3.27 GBDURATION .. 1 h 22 minVIDEO ..... x264 / 1280x696p / 5065 Kbps / 23.976 fpsAUDIO ...…
11-19 85
2566
11-19 77
2565
11-19 61
2564
독교와 동양철학, 우주와 창조주, 인간에 대한 독특한 세계관이 표현 된 작품으로 ‘조도로프스키’ 감…
11-18 81
2563
특수부대에서 제대하고 귀향한 크리스 본(더 락). 아버지처럼 제재소에서 일하기를 원했던 그는 완전히 …
11-18 84
2562
11-18 91
2561
11-18 86
 1  2  3  4  5  6  7  8  9  10  다음  맨끝