즐겨찾기 | 현재접속자 (41) | 최근게시물
총 게시물 636건, 최근 19 건
   

[한글] 테이크 쉘터 Take Shelter 2011 (1080p Bluray x265 HEVC 10bit AAC 5.1 Tigole)

글쓴이 : 익명글쓴이 날짜 : 2017-06-15 (목) 20:48 조회 : 188
다운로드 : [한글] 테이크 쉘터 Take Shelter 2011 (1080p Bluray x265 HEVC 10bit AAC 5.1 Tigole) (4.9G)
170613 170614 170615 주비디오, 실시간, 사이트, 마그넷

Take Shelter 2011 in 1080p, encoded with x265 in HEVC and AAC 5.1 English, with English and French subtitles! 
Encoded using the time consuming 2 pass, 10 bit color at 2750 kbps, from a Blu-ray source, for the highest quality possible. 



Media Information

Code:

General 
Format : Matroska 
Format version : Version 4 / Version 2 
File size : 2.66 GiB 
Duration : 2 h 1 min 
Overall bit rate : 3 141 kb/s 
Movie name : Take Shelter 
Encoded date : UTC 2017-05-09 10:26:31 
Writing application : mkvmerge v9.6.0 (Slave To Your Mind) 64bit 
Writing library : libebml v1.3.4 + libmatroska v1.4.5 

Video 
ID : 1 
Format : HEVC 
Format/Info : High Efficiency Video Coding 
Format profile : [email protected]<script data-cfhash='f9e31' type="text/javascript">@Main 
Codec ID : V_MPEGH/ISO/HEVC 
Duration : 2 h 1 min 
Bit rate : 2 761 kb/s 
Width : 1 920 pixels 
Height : 816 pixels 
Display aspect ratio : 2.35:1 
Frame rate mode : Constant 
Frame rate : 23.976 (24000/1001) FPS 

Audio #1 
ID : 2 
Format : AAC 
Format/Info : Advanced Audio Codec 
Format profile : LC 
Codec ID : A_AAC 
Duration : 2 h 1 min 
Bit rate : 305 kb/s 
Channel(s) : 6 channels 
Channel positions : Front: L C R, Side: L R, LFE 
Sampling rate : 48.0 kHz 
Frame rate : 46.875 FPS (1024 spf) 
Compression mode : Lossy 
Delay relative to video : 20 ms 
Stream size : 264 MiB (10%) 
Language : English 
Default : Yes 
Forced : No 

Audio #2 
ID : 3 
Format : AAC 
Format/Info : Advanced Audio Codec 
Format profile : HE-AAC / LC 
Codec ID : A_AAC 
Duration : 2 h 1 min 
Bit rate : 66.2 kb/s 
Channel(s) : 2 channels 
Channel positions : Front: L R 
Sampling rate : 48.0 kHz / 24.0 kHz 
Frame rate : 23.438 FPS (1024 spf) 
Compression mode : Lossy 
Delay relative to video : 40 ms 
Stream size : 57.0 MiB (2%) 
Title : Commentary 
Language : English 
Default : No 
Forced : No 

악몽인가 현실인가, 폭풍에 맞서는 한 남자의 외로운 싸움이 시작된다!

한 여자의 남편이자 한 아이의 아빠로서 성실한 삶을 살고 있는 커티스. 하지만 어느 날부터인가 시작된 악몽은 평온했던 그의 일상을 뒤흔든다. 거대한 폭풍이 밀려오는 악몽은 현실 깊숙이 침투해 커티스를 괴롭히고, 그의 이상행동을 이해하지 못하는 아내 사만다와 동료들은 그를 외면하기에 이른다. 그럼에도 커티스는 폭풍으로부터 가족을 지켜내야 한다는 사명감으로 뒷마당에 방공호를 짓기 시작하는데…

[한글] 테이크 쉘터 Take Shelter 2011 (1080p Bluray x265 HEVC 10bit AAC 5.1 Tigole)
[ 바로감상 ] [ 다운로드 ]

   

총 게시물 636건, 최근 19 건
번호 제목 날짜 조회
636
SIZE.......................: 4.36 GBRUNTIME................: 02:06:54VIDEO CODEC........: x264 10bits 4230 Kb/sRESOLUTION..........: 192…
01:48 0
635
줄거리 “꼭 돌아온다고 약속해줘요”그 무엇도 막을 수 없었던 영원한 사랑!2차 세계대전이 종전될 무…
00:48 1
634
실화를 바탕으로 한 영화. 카렌 실크우드는 미국 오클라호마 핵발전소의 여성노동자였다. 그녀는 1974년 1…
07-22 0
633
1929년의 대공황기. 이권을 놓고 서로 속이고 죽이는 뒷골목 세계에서 냉소적인 사색가인 톰(Tom Reagan: 가…
07-22 0
632
블레어 윗치the.blair.witch.project.1999.1080p.proper.bluray.x264-meth 블레어 윗치 The Blair Witch Project, 1999 공포, 미스터…
07-22 0
631
Replicant Year of manufacture: 2001 Genre: Fiction, Action, Thriller Released: USA, 777 Films Corporation, Artisan Entertainment, Millen…
07-22 0
630
1920년 뉴욕의 뒷골목. 고아로 자란 크리스(Christopher Dubois: 쟝-끌로드 반담 분)는 소매치기 집단의 우두머…
07-22 0
629
동남아의 신비한 국가 샤달루는 7개월째 내전에 휩싸이고 있다. 여기에 각국에서 파견된 63명의 구호반을…
07-22 0
628
Kickboxer  Year of manufacture: 1989 Genre: Action, Sports Issued: United States, Kings Road Entertainment Director: Mark DiSalle, Dav…
07-22 0
627
     Quality: BDRip 1080p Format: MKV Video codec: H.265 HEVC 10 bit Audio Codec: AAC Video: 1920x1038, 23.976fps, 3 985 kb/s Aud…
07-22 0
626
  Bloodsport Year of manufacture: 1988 Genre: Action, drama, biography, sport Issued: United States, Cannon International Director: N…
07-22 0
625
No Retreat, No Surrender Year of manufacture: 1986 Genre: Action, drama Issued: USA, Hong Kong, Balcor Film Investors, New World Picture…
07-22 0
624
국내에서 많은 인기를 끌고 있는 구해줘의 작가 기욤 뮈소가 쓴 두번째 장편 소설인 완전한 죽음을 원작…
07-22 0
623
만약 당신이 피를 마시는 영원불멸한 존재라면,언제든지 입학을 환영합니다!성 블라디미르 아카데미는 …
07-22 0
622
20년 전, 모두가 목격한 살인사건 모든 것은 실제상황이다! 1994년 추석, 온 국민을 충격에 빠뜨렸던 사상…
07-22 0
621
07-22 0
620
07-22 0
619
07-22 0
618
07-22 0
617
07-21 36
 1  2  3  4  5  6  7  8  9  10  다음  맨끝