즐겨찾기 | 현재접속자 (144) | 최근게시물
총 게시물 1,546건, 최근 20 건
   

[한글] 테이크 쉘터 Take Shelter 2011 (1080p Bluray x265 HEVC 10bit AAC 5.1 Tigole)

글쓴이 : 익명글쓴이 날짜 : 2017-06-15 (목) 20:48 조회 : 897
다운로드 : [한글] 테이크 쉘터 Take Shelter 2011 (1080p Bluray x265 HEVC 10bit AAC 5.1 Tigole) (3.4G)
170613 170614 170615 홈페이지, 실시간, 감상, magnet

Take Shelter 2011 in 1080p, encoded with x265 in HEVC and AAC 5.1 English, with English and French subtitles! 
Encoded using the time consuming 2 pass, 10 bit color at 2750 kbps, from a Blu-ray source, for the highest quality possible. 



Media Information

Code:

General 
Format : Matroska 
Format version : Version 4 / Version 2 
File size : 2.66 GiB 
Duration : 2 h 1 min 
Overall bit rate : 3 141 kb/s 
Movie name : Take Shelter 
Encoded date : UTC 2017-05-09 10:26:31 
Writing application : mkvmerge v9.6.0 (Slave To Your Mind) 64bit 
Writing library : libebml v1.3.4 + libmatroska v1.4.5 

Video 
ID : 1 
Format : HEVC 
Format/Info : High Efficiency Video Coding 
Format profile : [email protected]<script data-cfhash='f9e31' type="text/javascript">@Main 
Codec ID : V_MPEGH/ISO/HEVC 
Duration : 2 h 1 min 
Bit rate : 2 761 kb/s 
Width : 1 920 pixels 
Height : 816 pixels 
Display aspect ratio : 2.35:1 
Frame rate mode : Constant 
Frame rate : 23.976 (24000/1001) FPS 

Audio #1 
ID : 2 
Format : AAC 
Format/Info : Advanced Audio Codec 
Format profile : LC 
Codec ID : A_AAC 
Duration : 2 h 1 min 
Bit rate : 305 kb/s 
Channel(s) : 6 channels 
Channel positions : Front: L C R, Side: L R, LFE 
Sampling rate : 48.0 kHz 
Frame rate : 46.875 FPS (1024 spf) 
Compression mode : Lossy 
Delay relative to video : 20 ms 
Stream size : 264 MiB (10%) 
Language : English 
Default : Yes 
Forced : No 

Audio #2 
ID : 3 
Format : AAC 
Format/Info : Advanced Audio Codec 
Format profile : HE-AAC / LC 
Codec ID : A_AAC 
Duration : 2 h 1 min 
Bit rate : 66.2 kb/s 
Channel(s) : 2 channels 
Channel positions : Front: L R 
Sampling rate : 48.0 kHz / 24.0 kHz 
Frame rate : 23.438 FPS (1024 spf) 
Compression mode : Lossy 
Delay relative to video : 40 ms 
Stream size : 57.0 MiB (2%) 
Title : Commentary 
Language : English 
Default : No 
Forced : No 

악몽인가 현실인가, 폭풍에 맞서는 한 남자의 외로운 싸움이 시작된다!

한 여자의 남편이자 한 아이의 아빠로서 성실한 삶을 살고 있는 커티스. 하지만 어느 날부터인가 시작된 악몽은 평온했던 그의 일상을 뒤흔든다. 거대한 폭풍이 밀려오는 악몽은 현실 깊숙이 침투해 커티스를 괴롭히고, 그의 이상행동을 이해하지 못하는 아내 사만다와 동료들은 그를 외면하기에 이른다. 그럼에도 커티스는 폭풍으로부터 가족을 지켜내야 한다는 사명감으로 뒷마당에 방공호를 짓기 시작하는데…

[한글] 테이크 쉘터 Take Shelter 2011 (1080p Bluray x265 HEVC 10bit AAC 5.1 Tigole)
[ 바로감상 ] [ 다운로드 ]

   

총 게시물 1,546건, 최근 20 건
번호 제목 날짜 조회
1546
생일마다 사기치는 Girl~!평범한 소시민 존 버킹검(벤 채플린)은 근소한 차이로 과장 승진에서 누락되지만…
03:48 4
1545
03:48 4
1544
시카고 비밀경찰기구 특수요원인 카민스키(Mark Kaminsky, aka Joseph P. Brenner: 아놀드 슈왈츠네거 분)는 고릴라…
03:48 4
1543
 가슴 따뜻해지는 크리스마스의 분위기를 그대로 담은 영화 [어 베리 머리 크리스마스]. [사랑도 통역이 …
03:48 5
1542
레트로액티브 (1997) Retroactive평점 8.5/10 장르|나라액션/범죄/SF 미국 개봉 | 영화시간/타입/나라90분, 15세이…
03:48 4
1541
03:48 3
1540
03:48 3
1539
09-22 19
1538
09-22 17
1537
09-22 18
1536
남루한 삶, 시시한 음악, 모두 버리고 두 번째 삶을 시작할거야어느 날 유튜브에서 접한 모차르트의 레퀴…
09-22 15
1535
09-22 17
1534
09-22 22
1533
09-22 20
1532
      홍콩    2000.01.15 개봉95분, 12세이상관람가    (감독) 마초성   …
09-22 21
1531
세상을 바꾸고 싶었던 한 남자, 그러나... 세상이 그를 바꾸려 한다미국 메이슨 시티의 곧고 신념 강한 재…
09-22 21
1530
09-22 22
1529
09-22 19
1528
09-22 19
1527
Not Rated | Drama | 12 September 2014 (Canada) Format : MatroskaFormat version : Version 4 / Version 2File size : 2.18 GiBDuration : 1 h 43…
09-22 39
 1  2  3  4  5  6  7  8  9  10  다음  맨끝