즐겨찾기 | 현재접속자 (53) | 최근게시물
총 게시물 207건, 최근 1 건
   

[한글] 테이크 쉘터 Take Shelter 2011 (1080p Bluray x265 HEVC 10bit AAC 5.1 Tigole)

글쓴이 : 익명글쓴이 날짜 : 2017-06-15 (목) 20:48 조회 : 73
다운로드 : [한글] 테이크 쉘터 Take Shelter 2011 (1080p Bluray x265 HEVC 10bit AAC 5.1 Tigole) (4.4G)
170613 170614 170615 토렌트, 쥬비디오, 감상, 실시간

Take Shelter 2011 in 1080p, encoded with x265 in HEVC and AAC 5.1 English, with English and French subtitles! 
Encoded using the time consuming 2 pass, 10 bit color at 2750 kbps, from a Blu-ray source, for the highest quality possible. 



Media Information

Code:

General 
Format : Matroska 
Format version : Version 4 / Version 2 
File size : 2.66 GiB 
Duration : 2 h 1 min 
Overall bit rate : 3 141 kb/s 
Movie name : Take Shelter 
Encoded date : UTC 2017-05-09 10:26:31 
Writing application : mkvmerge v9.6.0 (Slave To Your Mind) 64bit 
Writing library : libebml v1.3.4 + libmatroska v1.4.5 

Video 
ID : 1 
Format : HEVC 
Format/Info : High Efficiency Video Coding 
Format profile : [email protected]<script data-cfhash='f9e31' type="text/javascript">@Main 
Codec ID : V_MPEGH/ISO/HEVC 
Duration : 2 h 1 min 
Bit rate : 2 761 kb/s 
Width : 1 920 pixels 
Height : 816 pixels 
Display aspect ratio : 2.35:1 
Frame rate mode : Constant 
Frame rate : 23.976 (24000/1001) FPS 

Audio #1 
ID : 2 
Format : AAC 
Format/Info : Advanced Audio Codec 
Format profile : LC 
Codec ID : A_AAC 
Duration : 2 h 1 min 
Bit rate : 305 kb/s 
Channel(s) : 6 channels 
Channel positions : Front: L C R, Side: L R, LFE 
Sampling rate : 48.0 kHz 
Frame rate : 46.875 FPS (1024 spf) 
Compression mode : Lossy 
Delay relative to video : 20 ms 
Stream size : 264 MiB (10%) 
Language : English 
Default : Yes 
Forced : No 

Audio #2 
ID : 3 
Format : AAC 
Format/Info : Advanced Audio Codec 
Format profile : HE-AAC / LC 
Codec ID : A_AAC 
Duration : 2 h 1 min 
Bit rate : 66.2 kb/s 
Channel(s) : 2 channels 
Channel positions : Front: L R 
Sampling rate : 48.0 kHz / 24.0 kHz 
Frame rate : 23.438 FPS (1024 spf) 
Compression mode : Lossy 
Delay relative to video : 40 ms 
Stream size : 57.0 MiB (2%) 
Title : Commentary 
Language : English 
Default : No 
Forced : No 

악몽인가 현실인가, 폭풍에 맞서는 한 남자의 외로운 싸움이 시작된다!

한 여자의 남편이자 한 아이의 아빠로서 성실한 삶을 살고 있는 커티스. 하지만 어느 날부터인가 시작된 악몽은 평온했던 그의 일상을 뒤흔든다. 거대한 폭풍이 밀려오는 악몽은 현실 깊숙이 침투해 커티스를 괴롭히고, 그의 이상행동을 이해하지 못하는 아내 사만다와 동료들은 그를 외면하기에 이른다. 그럼에도 커티스는 폭풍으로부터 가족을 지켜내야 한다는 사명감으로 뒷마당에 방공호를 짓기 시작하는데…

[한글] 테이크 쉘터 Take Shelter 2011 (1080p Bluray x265 HEVC 10bit AAC 5.1 Tigole)
[ 바로감상 ] [ 다운로드 ]

   

총 게시물 207건, 최근 1 건
번호 제목 날짜 조회
207
평범한 고교생 친구 앤드류와 맷, 스티브는 어느 날, 우연히 발견한 땅굴에서 무언가를 본 이후 그들에게…
06-22 17
206
매력적인주소 : magnet:?xt=urn:btih:1A8428542465F8C3E796F44BBFEAC2E751EA21BC
06-21 63
205
The Pacifier 2005 1080p BluRay x264 AAC 5.1- Hon3y Source: Remux @ FGT Format : Matroska Format version : Version 4 / Version 2 File si…
06-21 69
204
Romeo + Juliet 1996 in 1080p, encoded with x265 in HEVC and AAC 5.1 English, with subtitles! Encoded using the time consuming 2 pass, 10 b…
06-21 73
203
06-20 87
202
Red Rock West 1993 in 1080p, encoded with x265 in HEVC and AAC 2.0 English, with subtitle! Encoded using the time consuming 2 pass, 10 bit…
06-20 85
201
   지상에서 영원으로   From Here To Eternity   1953년  미국   감독 : 프레드 진네만   상영시간 : 118분  …
06-20 78
200
06-19 91
199
메인 주의 캐슬락에 뉴잉글런드 출신의 노신사 릴랜드 건트(Leland Gaunt: 막스 본 시도우 분)가 욕망을 파는…
06-19 87
198
지. 아이. 제인 원제: G.I. Jane 감독: 리들리 스콧 출연: 데미 무어, 비고 모텐슨, 앤 밴크로프트 제작: 1997…
06-18 103
197
Monty.Python.and.the.Holy.Grail.1975.1080p.BluRay.x264.anoXmous http://www.imdb.com/title/tt0071853/ 영국 전역에서 자신을 보좌…
06-18 100
196
SIZE..........................: 4.37 GBRUNTIME...................: 01:42:28VIDEO CODEC...........: x264 4530 Kb/sRESOLUTION.............: 1…
06-18 103
195
SIZE..........................: 4.36 GBRUNTIME...................: 01:46:59VIDEO CODEC...........: x264 4335 Kb/sRESOLUTION.............: 1…
06-18 98
194
06-18 109
193
06-18 94
192
06-18 93
191
SIZE.......................: 4.33 GBRUNTIME................: 01:51:32VIDEO CODEC........: x264 10bits 4040 Kb/sRESOLUTION..........: 1920…
06-16 130
190
Casualties of War 1989 EXTENDED 1080p BluRay x264 AAC - Hon3y : Media Info : Size: 1.99GB I Duration: 1 h 59 min 06s I Container: MKV Au…
06-16 127
189
06-16 119
188
감독:Alan Rudolph IMDB평점:5.6/10     보통 영화 구성과 형식적인 측면에서 플래시백이 자주 쓰…
06-15 146
 1  2  3  4  5  6  7  8  9  10  다음  맨끝