즐겨찾기 | 현재접속자 (108) | 최근게시물
총 게시물 2,597건, 최근 13 건
   

[한글] 텍사스 전기톱 연쇄살인사건 The Texas Chainsaw Massacre 2003 720p BRRip x264-HDLiTE

글쓴이 : 익명글쓴이 날짜 : 2017-11-08 (수) 13:48 조회 : 342
다운로드 : [한글] 텍사스 전기톱 연쇄살인사건 The Texas Chainsaw Massacre 2003 720p BRRip x264-HDLiTE (5.2G)
171106 171107 171108 무료보기, 무료, 실시간, 바로보기


R | Horror

Format                                   : MPEG-4
Format profile                           : Base Media
Codec ID                                 : isom (isom)
File size                                : 2.10 GiB
Duration                                 : 1 h 38 min
Overall bit rate mode                    : Variable
Overall bit rate                         : 3 054 kb/s
Encoded date                             : UTC 2011-01-05 07:03:13
Tagged date                              : UTC 2011-01-05 07:03:13

Video
ID                                       : 1
Format                                   : AVC
Format/Info                              : Advanced Video Codec
Format profile                           : [email protected]
Format settings, CABAC                   : Yes
Format settings, ReFrames                : 4 frames
Codec ID                                 : avc1
Codec ID/Info                            : Advanced Video Coding
Duration                                 : 1 h 38 min
Bit rate                                 : 2 652 kb/s
Maximum bit rate                         : 60.0 Mb/s
Width                                    : 1 280 pixels
Height                                   : 720 pixels
Display aspect ratio                     : 16:9
Frame rate mode                          : Constant
Frame rate                               : 23.976 FPS
Color space                              : YUV
Chroma subsampling                       : 4:2:0
Bit depth                                : 8 bits
Scan type                                : Progressive
Bits/(Pixel*Frame)                       : 0.120
Stream size                              : 1.82 GiB (87%)

Audio
ID                                       : 2
Format                                   : AAC
Format/Info                              : Advanced Audio Codec
Format profile                           : LC
Codec ID                                 : 40
Duration                                 : 1 h 38 min
Bit rate mode                            : Variable
Bit rate                                 : 85.0 kb/s
Nominal bit rate                         : 401 kb/s
Maximum bit rate                         : 410 kb/s
Channel(s)                               : 2 channels
Channel(s)_Original                      : 6 channels
Channel positions                        : Front: L C R, Side: L R, LFE
Sampling rate                            : 48.0 kHz
Frame rate                               : 46.875 FPS (1024 spf)
Compression mode                         : Lossy
Stream size                              : 59.8 MiB (3%)
Language                                 : English

[한글] 텍사스 전기톱 연쇄살인사건 The Texas Chainsaw Massacre 2003 720p BRRip x264-HDLiTE
[ 바로감상 ] [ 다운로드 ]

   

총 게시물 2,597건, 최근 13 건
번호 제목 날짜 조회
2597
베네트라는 작은 시골 마을에 살고 있는 얼은 자동차 정비사이다. 그에게는 삶의 이유이며 LA에서 배우로…
03:48 3
2596
줄거리9살 걱정많은 소년과 52살 철없는 아저씨의 엄마찾아 삼~천포52세 철없는 아저씨, 9세 걱정 많은 소…
03:48 2
2595
03:48 3
2594
감독:Rob BowmanIMDB평점:5.5/10   추억의 청춘 코미디 모험물 '에어본'은 세쓰 그린, 크리스 콘래드,…
03:48 3
2593
03:48 3
2592
줄거리당신이 기억에서 나를 지워도 처음처럼 사랑할 수 있을까?열렬히 사랑하는 부부 페이지(레이첼 맥…
03:48 1
2591
         일명 공포의 레인으로 통하는 찰스 레인은 네 번씩이나 민항 여객기를 폭파하고도 범죄에 …
11-21 16
2590
Source File:Leon: The Professional 1994 1080p BluRay Remux AVC DTS-HD MA 7.1 - R2D2 Media Information:Code:General Complete name : Léon …
11-21 18
2589
11-21 18
2588
11-21 17
2587
영국 한 마을에 영화 제작팀이 들어선다. 마을 회관에서 열리고 있는 파티에서 여배우 마리나(Marina Rudd: …
11-21 17
2586
PG | Adventure, Biography, Drama (Duration): 3h 12mn(FileSize): 4.05 GiBVideo(Format): AVC - Advanced Video Codec(Format): x264(Resolution)…
11-21 25
2585
R | Drama, Romance(Duration): 2h 31mn(FileSize): 2.91 GiBVideo(Format): AVC - Advanced Video Codec(Format): x264(Resolution): 1280x720p(Asp…
11-21 25
2584
2019년 11월 LA. 400층이나 되는 높이의 건물들로 가득 찬 거리와 끊임없이 번쩍이는 레온등과 광적 행위가 …
11-21 48
2583
줄거리  당신이 기억에서 나를 지워도 처음처럼 사랑할 수 있을까?열렬히 사랑하는 부부 페이지(…
11-21 44
2582
줄거리  그녀들의 아슬아슬한 반란이 세상을 바꾼다!‘헬프[help]’ 는?1. 가정부 혹은 가사 도우미…
11-21 50
2581
제거 대상은 ‘빈 라덴’, 작전명은 ‘제로니모’!인류 역사상 가장 악명 높은 테러리스트를 사살하라!…
11-21 36
2580
줄거리  법도 없다! 희망도 없다! 탈출구도 없다! 평범한 중산층의 가장 포터는 어느날 집에 침입…
11-20 70
2579
줄거리  역사속에 묻혀졌던 파격적인 스캔들이 공개된다!프로이트와 융... 그리고 그녀가 품었던 …
11-20 72
2578
11-20 75
 1  2  3  4  5  6  7  8  9  10  다음  맨끝