즐겨찾기 | 현재접속자 (112) | 최근게시물
총 게시물 2,557건, 최근 11 건
   

[한글] 더 빌런 Ek Villain 2014 Hindi 1080p BluRay x264 DTS 5.1 MSubS - Hon3y

글쓴이 : 익명글쓴이 날짜 : 2017-11-14 (화) 08:48 조회 : 226
다운로드 : [한글] 더 빌런 Ek Villain 2014 Hindi 1080p BluRay x264 DTS 5.1 MSubS - Hon3y (5.9G)
171112 171113 171114 홈페이지, 다운, 바로보기, 마그넷


NR | Action, Crime, Drama

Source                    : BD50
Format                      : Matroska
Format version              : Version 4 / Version 2
File size                   : 4.37 GiB
Duration                    : 2 h 8 min
Overall bit rate            : 4 861 kb/s

Video
ID                          : 1
Format                      : AVC
Format/Info                 : Advanced Video Codec
Format profile              : [email protected]
Format settings, CABAC      : Yes
Format settings, ReFrames   : 5 frames
Codec ID                    : V_MPEG4/ISO/AVC
Duration                    : 2 h 8 min
Bit rate                    : 4 090 kb/s
Width                       : 1 920 pixels
Height                      : 816 pixels
Display aspect ratio        : 2.35:1
Frame rate mode             : Constant
Frame rate                  : 24.000 FPS
Language                    : Hindi
Default                     : Yes
Forced                      : No

Audio
ID                          : 2
Format                      : DTS
Format/Info                 : Digital Theater Systems
Mode                        : 16
Format settings, Endianness : Big
Codec ID                    : A_DTS
Duration                    : 2 h 8 min
Bit rate mode               : Constant
Bit rate                    : 768 kb/s
Channel(s)                  : 6 channels
Channel positions           : Front: L C R, Side: L R, LFE
Sampling rate               : 48.0 kHz
Frame rate                  : 93.750 FPS (512 spf)
Bit depth                   : 24 bits
Compression mode            : Lossy
Stream size                 : 708 MiB (16%)
Language                    : Hindi
Default                     : Yes
Forced                      : No

Text #1
ID                          : 3
Format                      : UTF-8
Codec ID                    : S_TEXT/UTF8
Codec ID/Info               : UTF-8 Plain Text
Duration                    : 2 h 6 min
Bit rate                    : 49 b/s
Count of elements           : 1567
Stream size                 : 45.8 KiB (0%)
Language                    : English
Default                     : Yes
Forced                      : No

[한글] 더 빌런 Ek Villain 2014 Hindi 1080p BluRay x264 DTS 5.1 MSubS - Hon3y
[ 바로감상 ] [ 다운로드 ]

   

총 게시물 2,557건, 최근 11 건
번호 제목 날짜 조회
2557
G | Action, Western(Duration): 1h 46mn(FileSize): 1.78 GiBVideo(Format): AVC - Advanced Video Codec(Format): x264(Resolution): 1280x546p(As…
07:48 10
2556
NR | Action, Western(Duration): 1h 35mn(FileSize): 1.64 GiBVideo(Format): AVC - Advanced Video Codec(Format): x264(Resolution): 1280x546p(A…
07:48 8
2555
PG-13 | Action, Comedy, Crime (Duration): 1h 28mn(FileSize): 1.98 GiBVideo(Format): AVC - Advanced Video Codec(Format): x264(Resolution): 1…
07:48 8
2554
에드(Ed Gentry: 존 보이트 분)와 루이스(Lewis Medlock: 버트 레이놀즈 분) 등은 주말을 이용, 댐공사로 수몰될 …
01:48 15
2553
 남자들은 모두 마피아를 꿈꾸고, 여자들은 몸 파는데 여념이 없으며, 경찰은 부패했고, 갱스터들은 당…
01:48 14
2552
01:48 10
2551
01:48 9
2550
01:48 11
2549
데자뷰 (2006) The Dejavu, Déjà vu 평점 8.7/10 장르|나라액션/스릴러 미국 개봉 | 영화시간/타입/나라2…
01:48 4
2548
         1920년 잉글랜드, 수많은 목숨을 앗아간 2차 세계대전 이후 사람들은 초자연적 현상에 기대…
01:48 4
2547
SIZE..........................: 4.36 GBRUNTIME...................: 01:54:43VIDEO CODEC...........: x264 4800 Kb/sRESOLUTION.............: 1…
00:48 5
2546
         각기 다른 장소에서, 하지만 모두 같은 날 밤 10시에 끔찍한 얼굴로 발견된 4명의 시체. 그들…
11-17 116
2545
R | Drama, Horror, Thriller (Duration): 1h 33mn(FileSize): 1.96 GiBVideo(Format): AVC - Advanced Video Codec(Media): video/H264(Format): x2…
11-17 123
2544
{그녀의 이름은 레드 소냐(Red Sonja), 폭력이 난무하던 머나먼 옛날의 미개한 시대에 용맹한 빨간 머리의 …
11-16 161
2543
터키의 침공으로 유럽이 위기에 몰리자 드라큘라 왕자(게리 올드먼)는 십자군을 일으킨다. 드라큘라는 …
11-16 161
2542
터키의 침공으로 유럽이 위기에 몰리자 드라큘라 왕자(게리 올드먼)는 십자군을 일으킨다. 드라큘라는 …
11-16 162
2541
질풍노도의 시기를 겪고 있는 17세 소녀 샬리. 예쁜 얼굴에 재주도 많지만, 불안과 실망, 외로움에 시달리…
11-16 96
2540
교회는 점점 커졌고, 예수는 점점 작아졌다. 아버지 목사가 교회의 주인이고, 아들 목사가 다음 주인이다…
11-16 109
2539
R | Horror, Thriller (Duration): 1h 32mn(FileSize): 2.03 GiBVideo(Format): AVC - Advanced Video Codec(Format): x264(Resolution): 1280x720p(…
11-16 97
2538
PG | Horror  VideoID                                       : 1Format                …
11-16 97
 1  2  3  4  5  6  7  8  9  10  다음  맨끝